Неугасимый свет любви (Лариса Самбурская)

Неугасимый свет любви (Лариса Самбурская)
Название:
Неугасимый свет любви (Лариса Самбурская)
Размер:
774.9 MB
48
Скачать
Неугасимый свет любви
Год выпуска: 2013
Страна: Россия
Жанр: Православные подвижники благочестия
Продолжительность: 00:48:22
Перевод: Не требуется
Русские субтитры: нет
Режиссер: Л. Самбурская
Описание: В фильме - повествование об архимандрите Серафиме (Тяпочкине), прежде всего и по преимуществу, документально. Это итог более чем двадцатилетнего поиска свидетельств о жизни и трудах старца, которые расширились и обогатились благодаря письмам читателей, присланным после выхода первого издания книги о нем в 1998 году.
Все эти откровения, жизненные истории, обстоятельства, порой драматические, в которых старец упоминается как духовный пастырь, молитвенник, как целитель, являют собой яркую и убедительную картину христианской святости. Это согревает самые холодные души, смягчает окаменелые сердца, вызывает в людях любовь и благодарность к батюшке, которого они почитают как святого.
Доп. информация: Рип сделан с этого исходника: http://rutracker.org/forum/viewtopic.php?t=4658656
Сэмпл: http://www.sendspace.com/file/58secx
Качество: DVDRip
Формат: AVI
Видео: 2098 Кбит/сек, 640*480 (4:3), 25,000 кадров/сек, MPEG-4 Visual
Аудио: Русский, 128 Кбит/сек, 48,0 КГц, 2 канала, MP3
MediaInfo
Общее
Полное имя : L:\Monar.ru\Видео\Документальные фильмы\Святые Вселенского Православия\Неугасимый свет любви.avi
Формат : AVI
Формат/Информация : Audio Video Interleave
Размер файла : 775 Мбайт
Продолжительность : 48 м.
Общий поток : 2240 Кбит/сек
Видео
Идентификатор : 0
Формат : MPEG-4 Visual
Профиль формата : Advanced Simple@L5
Параметр BVOP формата : 2
Параметр QPel формата : Нет
Параметр GMC формата : Без точки перехода
Параметр матрицы формата : Выборочная
Идентификатор кодека : XVID
Идентификатор кодека/Подсказка : XviD
Продолжительность : 48 м.
Битрейт : 2098 Кбит/сек
Ширина : 640 пикселей
Высота : 480 пикселей
Соотношение сторон : 4:3
Частота кадров : 25,000 кадров/сек
Цветовое пространство : YUV
Субдискретизация насыщенности : 4:2:0
Битовая глубина : 8 бит
Тип развёртки : Прогрессивная
Метод сжатия : С потерями
Бит/(Пиксели*Кадры) : 0.273
Размер потока : 726 Мбайт (94%)
Библиотека кодирования : XviD 1.2.1 (UTC 2008-12-04)
Аудио
Идентификатор : 1
Формат : MPEG Audio
Версия формата : Version 1
Профиль формата : Layer 3
Идентификатор кодека : 55
Идентификатор кодека/Подсказка : MP3
Продолжительность : 48 м.
Продолжительность оригинала : 48 м.
Вид битрейта : Постоянный
Битрейт : 128 Кбит/сек
Каналы : 2 канала
Частота : 48,0 КГц
Метод сжатия : С потерями
Размер потока : 44,3 Мбайт (6%)
Выравнивание : Разделение по промежуткам
Продолжительность промежутка : 24 мс. (0,60 видеокадр)
Библиотека кодирования : LAME3.98.2UUUUUUUUF
Скриншоты