Киево-Печерская Лавра (Сергей Андрюшкин)

Киево-Печерская Лавра (Сергей Андрюшкин)
Название:
Киево-Печерская Лавра (Сергей Андрюшкин)
Размер:
2.64 GB
53
Скачать
Киево-Печерская Лавра
Год выпуска: 2013
Страна: Россия
Жанр: Православные святыни
Продолжительность: 00:51:58
Перевод: Не требуется
Русские субтитры: нет
Режиссер: С. Андрюшкин
Описание: Киево-Печерская Лавра является символом крепости православной веры. Во все времена эта обитель противостояла иноземным захватчикам, насаждению западной культуры и религии; была неоднократно разрушена почти до основания, но возрождалась вновь. В пещерах Киево-Печерской Лавры покоятся мощи сотен святых, таких как Антоний и Феодосий Киево-Печерские, Нестор Летописец, Илья Муромец и т.д.
Доп. информация: Медиа-проект "Толк и польза" осуществляется при содействии архиепископа Егорьевского Марка.
Это ознакомительная версия фильма, короче оригинальной примерно на минуту. Также отсутствует рекламный ролик студии.
Сэмпл: http://www.sendspace.com/file/qc2s3c
Качество: DVD5
формат: DVD video
Видео: MPEG2, 720*576 (4:3), 9864 Кбит/сек, 25,000 кадров/сек
Аудио: Русский, 1536 Кбит/сек, 48,0 КГц, 2 канала, PCM
DVDInfo
Title: Киево-Печерская Лавра
Size: 2.64 Gb ( 2 765 492,00 KBytes ) - DVD-5
Enabled regions: 1, 2, 3, 4, 5, 6, 7, 8
VTS_01 :
Play Length: 00:51:58
Video: PAL 4:3 (720x576) VBR
Audio:
Not specified (LinearPCM, 2 ch)
* Menus Information *
VIDEO_TS Menu
Video:
PAL 4:3 (720x576) VBR
Audio:
Not specified (LinearPCM, 2 ch)
Language Unit :
Title Menu
VTS_01 Menu
Video:
NTSC 4:3 (720x480) VBR
Auto Pan&Scan, Auto Letterboxed
Language Unit :
Root Menu
MediaInfo
Общее
Полное имя : M:\MONAR.RU\Видео\Документальные фильмы\Святыни Вселенского Православия\Киево-Печерская Лавра\VIDEO_TS\VIDEO_TS.BUP
Формат : DVD Video
Профиль формата : Menu
Размер файла : 102 Кбайт
Режим общего битрейта : Переменный
Видео
Идентификатор : 224 (0xE0)
Формат : MPEG Video
Версия формата : Version 2
Вид битрейта : Переменный
Ширина : 720 пикселей
Высота : 576 пикселей
Соотношение сторон : 4:3
Частота кадров : 25,000 кадров/сек
Стандарт вещания : PAL
Метод сжатия : С потерями
Аудио
Формат : PCM
Каналы : 2 канала
Частота : 48,0 КГц
Текст
Формат : RLE
Формат/Информация : Run-length encoding
Битовая глубина : 2 бит
Общее
Полное имя : M:\MONAR.RU\Видео\Документальные фильмы\Святыни Вселенского Православия\Киево-Печерская Лавра\VIDEO_TS\VIDEO_TS.IFO
Формат : DVD Video
Профиль формата : Menu
Размер файла : 102 Кбайт
Режим общего битрейта : Переменный
Видео
Идентификатор : 224 (0xE0)
Формат : MPEG Video
Версия формата : Version 2
Вид битрейта : Переменный
Ширина : 720 пикселей
Высота : 576 пикселей
Соотношение сторон : 4:3
Частота кадров : 25,000 кадров/сек
Стандарт вещания : PAL
Метод сжатия : С потерями
Аудио
Формат : PCM
Каналы : 2 канала
Частота : 48,0 КГц
Текст
Формат : RLE
Формат/Информация : Run-length encoding
Битовая глубина : 2 бит
Общее
Полное имя : M:\MONAR.RU\Видео\Документальные фильмы\Святыни Вселенского Православия\Киево-Печерская Лавра\VIDEO_TS\VIDEO_TS.VOB
Формат : MPEG-PS
Размер файла : 222 Мбайт
Продолжительность : 2 м. 39 с.
Режим общего битрейта : Переменный
Общий поток : 11,6 Мбит/сек
Видео
Идентификатор : 224 (0xE0)
Формат : MPEG Video
Версия формата : Version 2
Профиль формата : Main@Main
Параметр BVOP формата : Да
Параметр матрицы формата : По умолчанию
Параметр GOP формата : Variable
Продолжительность : 40 мс.
Вид битрейта : Переменный
Битрейт : 9864 Кбит/сек
Максимальный битрейт : 8000 Кбит/сек
Ширина : 720 пикселей
Высота : 576 пикселей
Соотношение сторон : 4:3
Частота кадров : 25,000 кадров/сек
Стандарт вещания : PAL
Цветовое пространство : YUV
Субдискретизация насыщенности : 4:2:0
Битовая глубина : 8 бит
Тип развёртки : Прогрессивная
Метод сжатия : С потерями
Бит/(Пиксели*Кадры) : 0.951
Временной код первого кадра : 00:00:00:00
Оригинал временного кода : Group of pictures header
Размер потока : 48,2 Кбайт (0%)
Основные цвета : BT.601 PAL
Характеристики трансфера : BT.470 System B, BT.470 System G
Коэффициенты матрицы : BT.601
Аудио
Идентификатор : 189 (0xBD)-160 (0xA0)
Формат : PCM
Параметр Endianness формата : Big
Параметр Sign формата : Signed
Режим смешивания : DVD-Video
Продолжительность : 2 м. 39 с.
Вид битрейта : Постоянный
Битрейт : 1536 Кбит/сек
Каналы : 2 канала
Частота : 48,0 КГц
Битовая глубина : 16 бит
Размер потока : 29,3 Мбайт (13%)
Текст
Идентификатор : 189 (0xBD)-32 (0x20)
Формат : RLE
Формат/Информация : Run-length encoding
Режим смешивания : DVD-Video
Меню
Общее
Полное имя : M:\MONAR.RU\Видео\Документальные фильмы\Святыни Вселенского Православия\Киево-Печерская Лавра\VIDEO_TS\VTS_01_0.BUP
Формат : DVD Video
Профиль формата : Program
Размер файла : 52,0 Кбайт
Продолжительность : 51 м.
Режим общего битрейта : Переменный
Общий поток : 137 бит/сек
Видео
Идентификатор : 224 (0xE0)
Формат : MPEG Video
Версия формата : Version 2
Продолжительность : 51 м.
Вид битрейта : Переменный
Ширина : 720 пикселей
Высота : 576 пикселей
Соотношение сторон : 4:3
Частота кадров : 25,000 кадров/сек
Стандарт вещания : PAL
Метод сжатия : С потерями
Аудио
Идентификатор : 0 (0x0)
Формат : PCM
Продолжительность : 51 м.
Каналы : 2 канала
Частота : 48,0 КГц
Меню
Продолжительность : 51 м.
00:00:00.000 : Chapter 1
00:03:26.800 : Chapter 2
00:19:34.000 : Chapter 3
00:24:44.080 : Chapter 4
00:34:47.760 : Chapter 5
List (Audio) : 0
Общее
Полное имя : M:\MONAR.RU\Видео\Документальные фильмы\Святыни Вселенского Православия\Киево-Печерская Лавра\VIDEO_TS\VTS_01_0.IFO
Формат : DVD Video
Профиль формата : Program
Размер файла : 52,0 Кбайт
Продолжительность : 51 м.
Режим общего битрейта : Переменный
Общий поток : 137 бит/сек
Видео
Идентификатор : 224 (0xE0)
Формат : MPEG Video
Версия формата : Version 2
Продолжительность : 51 м.
Вид битрейта : Переменный
Ширина : 720 пикселей
Высота : 576 пикселей
Соотношение сторон : 4:3
Частота кадров : 25,000 кадров/сек
Стандарт вещания : PAL
Метод сжатия : С потерями
Аудио
Идентификатор : 0 (0x0)
Формат : PCM
Продолжительность : 51 м.
Каналы : 2 канала
Частота : 48,0 КГц
Меню
Продолжительность : 51 м.
00:00:00.000 : Chapter 1
00:03:26.800 : Chapter 2
00:19:34.000 : Chapter 3
00:24:44.080 : Chapter 4
00:34:47.760 : Chapter 5
List (Audio) : 0
Общее
Полное имя : M:\MONAR.RU\Видео\Документальные фильмы\Святыни Вселенского Православия\Киево-Печерская Лавра\VIDEO_TS\VTS_01_1.VOB
Формат : MPEG-PS
Размер файла : 1024 Мбайт
Продолжительность : 21 м.
Режим общего битрейта : Переменный
Общий поток : 6678 Кбит/сек
Видео
Идентификатор : 224 (0xE0)
Формат : MPEG Video
Версия формата : Version 2
Профиль формата : Main@Main
Параметр BVOP формата : Да
Параметр матрицы формата : По умолчанию
Параметр GOP формата : M=3, N=12
Продолжительность : 21 м.
Вид битрейта : Переменный
Битрейт : 5009 Кбит/сек
Максимальный битрейт : 7000 Кбит/сек
Ширина : 720 пикселей
Высота : 576 пикселей
Соотношение сторон : 4:3
Частота кадров : 25,000 кадров/сек
Стандарт вещания : PAL
Цветовое пространство : YUV
Субдискретизация насыщенности : 4:2:0
Битовая глубина : 8 бит
Тип развёртки : Чересстрочная
Порядок развёртки : Нижнее поле первое
Метод сжатия : С потерями
Бит/(Пиксели*Кадры) : 0.483
Временной код первого кадра : 00:00:00:00
Оригинал временного кода : Group of pictures header
Размер потока : 768 Мбайт (75%)
Аудио
Идентификатор : 189 (0xBD)-160 (0xA0)
Формат : PCM
Параметр Endianness формата : Big
Параметр Sign формата : Signed
Режим смешивания : DVD-Video
Продолжительность : 21 м.
Вид битрейта : Постоянный
Битрейт : 1536 Кбит/сек
Каналы : 2 канала
Частота : 48,0 КГц
Битовая глубина : 16 бит
Задержка видео : -80 мс.
Размер потока : 235 Мбайт (23%)
Меню
Общее
Полное имя : M:\MONAR.RU\Видео\Документальные фильмы\Святыни Вселенского Православия\Киево-Печерская Лавра\VIDEO_TS\VTS_01_2.VOB
Формат : MPEG-PS
Размер файла : 1024 Мбайт
Продолжительность : 21 м.
Режим общего битрейта : Переменный
Общий поток : 6665 Кбит/сек
Видео
Идентификатор : 224 (0xE0)
Формат : MPEG Video
Версия формата : Version 2
Профиль формата : Main@Main
Параметр BVOP формата : Да
Параметр матрицы формата : По умолчанию
Параметр GOP формата : M=3, N=12
Продолжительность : 21 м.
Вид битрейта : Переменный
Битрейт : 4996 Кбит/сек
Максимальный битрейт : 7000 Кбит/сек
Ширина : 720 пикселей
Высота : 576 пикселей
Соотношение сторон : 4:3
Частота кадров : 25,000 кадров/сек
Стандарт вещания : PAL
Цветовое пространство : YUV
Субдискретизация насыщенности : 4:2:0
Битовая глубина : 8 бит
Тип развёртки : Чересстрочная
Порядок развёртки : Нижнее поле первое
Метод сжатия : С потерями
Бит/(Пиксели*Кадры) : 0.482
Размер потока : 767 Мбайт (75%)
Аудио
Идентификатор : 189 (0xBD)-160 (0xA0)
Формат : PCM
Параметр Endianness формата : Big
Параметр Sign формата : Signed
Режим смешивания : DVD-Video
Продолжительность : 21 м.
Вид битрейта : Постоянный
Битрейт : 1536 Кбит/сек
Каналы : 2 канала
Частота : 48,0 КГц
Битовая глубина : 16 бит
Задержка видео : -777 мс.
Размер потока : 236 Мбайт (23%)
Меню
Общее
Полное имя : M:\MONAR.RU\Видео\Документальные фильмы\Святыни Вселенского Православия\Киево-Печерская Лавра\VIDEO_TS\VTS_01_3.VOB
Формат : MPEG-PS
Размер файла : 431 Мбайт
Продолжительность : 9 м. 3 с.
Режим общего битрейта : Переменный
Общий поток : 6644 Кбит/сек
Видео
Идентификатор : 224 (0xE0)
Формат : MPEG Video
Версия формата : Version 2
Профиль формата : Main@Main
Параметр BVOP формата : Да
Параметр матрицы формата : По умолчанию
Параметр GOP формата : M=3, N=12
Продолжительность : 9 м. 3 с.
Вид битрейта : Переменный
Битрейт : 4976 Кбит/сек
Максимальный битрейт : 7000 Кбит/сек
Ширина : 720 пикселей
Высота : 576 пикселей
Соотношение сторон : 4:3
Частота кадров : 25,000 кадров/сек
Стандарт вещания : PAL
Цветовое пространство : YUV
Субдискретизация насыщенности : 4:2:0
Битовая глубина : 8 бит
Тип развёртки : Чересстрочная
Порядок развёртки : Нижнее поле первое
Метод сжатия : С потерями
Бит/(Пиксели*Кадры) : 0.480
Временной код первого кадра : 00:42:55:07
Оригинал временного кода : Group of pictures header
Размер потока : 322 Мбайт (75%)
Аудио
Идентификатор : 189 (0xBD)-160 (0xA0)
Формат : PCM
Параметр Endianness формата : Big
Параметр Sign формата : Signed
Режим смешивания : DVD-Video
Продолжительность : 9 м. 3 с.
Вид битрейта : Постоянный
Битрейт : 1536 Кбит/сек
Каналы : 2 канала
Частота : 48,0 КГц
Битовая глубина : 16 бит
Задержка видео : -552 мс.
Размер потока : 99,5 Мбайт (23%)
Меню
Скриншоты меню
Скриншоты
Анаморфированные скриншоты
Обложка и диск